Προς το περιεχόμενο

ψάχνω πρόγραμμα επεξεργασίας mp3


g1annis

Προτεινόμενες αναρτήσεις

Έχω αρχείο 1 ώρα περίπου που είναι 12 συνεχόμενα τραγούδια σε μορφή .mp3. Μαζί έχω και ένα .cue

 

Υπάρχει τρόπος να το κάψω σε audio cd με τη δόμή του αρχικού cd (με 12 tracks)? Νομίζω πως το cue έχει κάποιες πληροφορίες για τα iso. Οπότε κάτι πρέπει να γίνεται. Υπάρχει κάποιο πρόγραμμα?

 

Ή πρέπει να κάνω το μεγάλο mp3 12 κομμάτια με κάποιο πρόγραμμα? Αν πρέπει να καταφύγω αναγκαστικά στο 2ο τρόπο, ποιό πρόγραμμα κάνει τέτοιες δουλειές?

Συνδέστε για να σχολιάσετε
Κοινοποίηση σε άλλες σελίδες

Αν σύρεις το .cue σε ένα άδειο Audio CD project θα δεις ότι θα δει μόνο του όλα τα κομμάτια ;-) Συμβουλή: αν είσαι σε δίλημμα, δοκίμασε. Τζάμπα είναι ;-)

Συνδέστε για να σχολιάσετε
Κοινοποίηση σε άλλες σελίδες

Σας ευχαριστώ πολύ παίδες.

 

Είστε και οι 2 σας, η dream team του insomnia.

 

Ευχαριστώ και πάλι. Δεν έπιασε βέβαια η οδηγία, αλλά θα το παλέψω.

Συνδέστε για να σχολιάσετε
Κοινοποίηση σε άλλες σελίδες

Δουλεύει 100%, απλά χρειάζεσαι k3b >= 0.12 (όσο πιο πρόσφατο, τόσο καλύτερα). Μετά μπορείς είτε με drag&drop είτε με το Tools -> Burn Image να το κάψεις με τα κομμάτια του κανονικά. ;-)

Συνδέστε για να σχολιάσετε
Κοινοποίηση σε άλλες σελίδες

Είχα την τελευταία έκδοση.

 

Όταν πάω μέσα tools-->burn cd image μου βγάζει

X Φαίνεται να είναι μη χρησιμοποιήσιμη μορφή αρχείου

 

Έχω κατεβάσει ότι υπάρχει για το K3B στο Synaptic (εκτός των development).

Μήπως πρέπει να κατεβάσω κάποιο support σε cue?

Συνδέστε για να σχολιάσετε
Κοινοποίηση σε άλλες σελίδες

- Πρόγραμμα εγγραφής CD/DVD είναι και κάνει και μερικά επί πλέον καλούδια. Αυτό και το gnomebaker είναι τα καλύτερα γραφικά για εγγραφή. Όπως στις περισσότερες περιπτώσεις, αν δώσεις στο google το όνομά του θα δεις το επίσημο site (k3b.org) ανάμεσα στα πρώτα αποτελέσματα ;)

 

- Γιάννη άνοιξε το cue με έναν text editor και επιβεβαίωσε ότι παραπέμπει στο σωστό filename με προσοχή στα κεφαλαία (π.χ. αν στο cue αναφέρεται το filename του image με κεφαλαίους χαρακτήρες ενώ είναι με μικρούς, στα windows θα δούλευε στο unix όχι)

Συνδέστε για να σχολιάσετε
Κοινοποίηση σε άλλες σελίδες

Εγκατέστησα και το GnomeBaker, το οποίο βγάζει αποτέλεσμα

 

"the plugin to handle a file of type application/x-cue is not installed"

 

Όμως δεν υπάρχει τίποτα άλλο να εγκαταστήσω για το GnomeBaker, ούτε μέσα από το πρόγραμμα μπορώ να εγκαταστήσω plugin.

Επίσης εγκατέστησα το cuetools, αλλά δεν είδα αποτέλεσμα ούτε στο k3b, ούτε στο GnomeBaker.

 

Επιβεβαίωσα (από κειμενογράφο) ότι το cue αναφέρεται πράγματι στο εν λόγω mp3. Για να είμαι σίγουρος έδωσα στο cue όνομα 12345 και άλλαξα το "file" στο κείμενο του cue, όπως και στο mp3 αλλά πάλι τίποτα.

 

Μπορεί να φταίει το cue αρχείο?

το κείμενο που έχει είναι της μορφής:

 

PERFORMER "VA"

 

TITLE "The Latino Mix "

 

FILE "12345.mp3" MP3

 

TRACK 01 AUDIO

 

TITLE "Mas Que Nada"

 

PERFORMER "Sergio Mendes"

 

INDEX 01 00:00:00

 

TRACK 02 AUDIO

 

TITLE "Samba De Janeiro"

 

PERFORMER "Bellini"

 

INDEX 01 02:33:18

 

TRACK 03 AUDIO

 

TITLE "Livin' La Vida Loca"

 

PERFORMER "Ricky Martin"

 

INDEX 01 05:17:36

 

TRACK 04 AUDIO

 

TITLE "Mambo No. 5 (A Little Bit Of...)"

 

PERFORMER "Lou Bega"

 

INDEX 01 09:16:96

 

TRACK 05 AUDIO

 

κλπ

 

Κάτι άλλο?

 

*παρεπιπτώντως, το GnomeBaker γράφει και DVD όπως το K3B, ή είναι μόνο για να γράφεις CDs?

Συνδέστε για να σχολιάσετε
Κοινοποίηση σε άλλες σελίδες

Εγκατέστησα και το GnomeBaker' date=' το οποίο βγάζει αποτέλεσμα

 

"the plugin to handle a file of type application/x-cue is not installed"

 

Όμως δεν υπάρχει τίποτα άλλο να εγκαταστήσω για το GnomeBaker, ούτε μέσα από το πρόγραμμα μπορώ να εγκαταστήσω plugin.

Επίσης εγκατέστησα το cuetools, αλλά δεν είδα αποτέλεσμα ούτε στο k3b, ούτε στο GnomeBaker.

[/quote']

Δε χρειάζεται κανένα εξωτερικό dependency για να χειριστεί το k3b cue files, μην ανησυχείς. Νομίζω ότι δεν έχει εγκατεστημένο το plugin για να χειρίζεται mp3 και γι' αυτό σου εμφανίζει αυτό το πρόβλημα. Δεν επιβεβαίωσες όμως και την έκδοση του K3B που χρησιμοποιείς ;-)

 

Επιβεβαίωσα (από κειμενογράφο) ότι το cue αναφέρεται πράγματι στο εν λόγω mp3. Για να είμαι σίγουρος έδωσα στο cue όνομα 12345 και άλλαξα το "file" στο κείμενο του cue, όπως και στο mp3 αλλά πάλι τίποτα.

 

Μπορεί να φταίει το cue αρχείο?

το κείμενο που έχει είναι της μορφής:

 

Άσε το .cue όπως ήταν πριν και με έναν decoder (π.χ. sox, mpg321) κάνε decode το mp3 σε ένα wav με το ίδιο όνομα (και extension .wav προφανώς). Διώξε το mp3 από το directory αυτό, άσε μόνο το .wav και ξαναδοκίμασε. Απ' ότι είδα στον κώδικα του k3b-0.12.15 αν δε βρει το FILE που αναφέρεται στο .cue, τότε ψάχνει για κάποιο αρχείο ήχου με όνομα ίδιο με αυτό που αναφέρεται, αλλά διαφορετική επέκταση.

Συνδέστε για να σχολιάσετε
Κοινοποίηση σε άλλες σελίδες

Κ3Β έχω το 0.12.7, αλλά το έχω εγκαταστήσει από Synaptic και δεν έχει άλλη έκδοση. Λες να κάνω μόνος μου εγκατάσταση του 0.12.15?

 

Μετέτρεψα το αρχείο από mp3 σε wav με το sox, αλλά πάλι βγάζει πρόβλημα

 

Κ3Β:

"αδύνατη η διαχείριση του ακόλουθου αρχείου λόγω μη υποστιριζόμενης μορφής" (ως audio)

"φαίνεται να είναι μη χρησιμοποιήσιμη μορφή" (ως image)

 

GnomeBaker

"Cdrdao version 1.1.9 - © Andreas Mueller <[email protected]>

SCSI interface library - © Joerg Schilling

Paranoia DAE library - © Monty

 

Check http://cdrdao.sourceforge.net/drives.html#dt for current driver tables.

 

ERROR: /home/g1annis/torrents temp/ARXEIO.cue

/home/g1annis/torrents temp/ARXEIO.cue:1: syntax error at "EOF" missing TrackDef" (ως image)

 

"The plugin bla bla bla is not installed" (ως audio)

Συνδέστε για να σχολιάσετε
Κοινοποίηση σε άλλες σελίδες

Φίλε apoike σε ευχαριστώ.

Μην ασχολείσαι άλλο. Αποφάσισα να εγκαταλείψω την προσπάθεια.

Εγκατέστησα ότι lib πρροτινόταν στο site του k3b, εγκατέστησα το 0.12.15 από τον κώδικα και πάλι τίποτα.

Μάλλον θα φταίει το cue. Δε δικαιολογείται κάτι άλλο πιστεύω.

 

Μόνο 2 ερωτησούλες τελευταίες.

 

1) Έχω εγκαταστήσει άλλη μια φορά πρόγραμμα από τον κώδικα. Αν θέλω να κάνω εγκατάσταση την νέα έκδοση, απλά θα αποσυμπιέσω το νέο tar στον ίδιο φάκελο και θα επαναλάβω την διαδικασία? Αν θέλω να απεγκαταστήσω πλήρως το πρόγραμμα ώστε να μη μείνει τίποτα, τι θα κάνω?

 

2) Το GnomeBaker αντιγράφει μόνο CD ή και DVD? Το K3B μου φαίνεται πιο πλήρες. Είναι όντως?

Συνδέστε για να σχολιάσετε
Κοινοποίηση σε άλλες σελίδες

Αν και δεν ειμαι σχετικος δεν δοκιμαζεις και το NeroLinux?

NeroLINUX is able to burn the following formats

Data CDs/DVDs (ISO9660, UDF and UDF/ISO9660 Bridge)

Bootable CDs/DVDs using the El-Torito standard

Audio CDs (CD TEXT Infos can be added)

Mix Mode CDs

Enhanced CDs (CD EXTRA)

CD and DVD Images (ISO, NRG and Cue Sheets)

Ability to burn Multisession CD/DVD

Double Layer DVDs

 

(http://www2.technobabble.com.au/modules.php?name=News&file=article&sid=309)

 

Και ριξε και μια ματια εδω...

http://linux.softpedia.com/get/Desktop-Environment/Tools/Mount-ISO-image-2216.shtml

 

Δεν ειναι opensource αλλα θα βρεις cracks ευκολα.

Συνδέστε για να σχολιάσετε
Κοινοποίηση σε άλλες σελίδες

Αρχειοθετημένο

Αυτό το θέμα έχει αρχειοθετηθεί και είναι κλειστό για περαιτέρω απαντήσεις.

  • Δημιουργία νέου...

Χρησιμοποιούμε  cookies για να απολαμβάνεις το insomnia προσωποποιημένο στις ανάγκες σου αλλά και για την παροχή στοιχείων επισκεψιμότητας για να βελτιώσουμε την ποιότητα των υπηρεσιών μας