Προς το περιεχόμενο
stevevathi

δεν μπορω να κουνησω τα keyframe

Προτεινόμενες αναρτήσεις

παιδεια προσπαθω να κοψω με avidemux αλλα δεν με αφηνει να διαλεξω τα σημεια http://imageshack.us/f/21/35524350.png/

 

 με αυτο που εχω κυκλωσει με μαυρο με αφηνει μονο,  οταν το αποθηκευω οτι μπορω να κοψω  ,αποθηκευεται ολο το βιντεο .

General.
Complete name                            : C:\Users\user\Desktop\EP 1 - Rebirth.avi
Format                                   : AVI
Format/Info                              : Audio Video Interleave
File size                                : 191 MiB
Duration                                 : 22mn 51s
Overall bit rate                         : 1 170 Kbps
Writing library                          : VirtualDub build 25854/release
 
Video
ID                                       : 0
Format                                   : AVC
Format/Info                              : Advanced Video Codec
Format profile                           : [email protected]
Format settings, CABAC                   : Yes
Format settings, ReFrames                : 11 frames
Codec ID                                 : h264
Duration                                 : 22mn 51s
Bit rate                                 : 1 000 Kbps
Width                                    : 704 pixels
Height                                   : 400 pixels
Display aspect ratio                     : 16:9
Frame rate                               : 23.976 fps
Color space                              : YUV
Chroma subsampling                       : 4:2:0
Bit depth                                : 8 bits
Scan type                                : Progressive
Bits/(Pixel*Frame)                       : 0.148
Stream size                              : 164 MiB (86%)
Writing library                          : x264 core 54 svn-600M
Encoding settings                        : cabac=1 / ref=8 / deblock=1:1:1 / analyse=0x3:0x133 / me=umh / subme=6 / brdo=1 / mixed_ref=1 / me_range=16 / chroma_me=1 / trellis=1 / 8x8dct=1 / cqm=0 / deadzone=21,11 / chroma_qp_offset=0 / slices=1 / nr=0 / decimate=1 / mbaff=0 / bframes=3 / b_pyramid=1 / b_adapt=1 / b_bias=0 / direct=3 / wpredb=1 / bime=1 / keyint=240 / keyint_min=24 / scenecut=35 / rc=2pass / bitrate=1000 / ratetol=4.0 / rceq='blurCplx^(1-qComp)' / qcomp=0.60 / qpmin=10 / qpmax=51 / qpstep=4 / cplxblur=20.0 / qblur=0.5 / ip_ratio=1.40 / pb_ratio=1.30
 
Audio
ID                                       : 1
Format                                   : MPEG Audio
Format version                           : Version 1
Format profile                           : Layer 3
Mode                                     : Joint stereo
Mode extension                           : MS Stereo
Codec ID                                 : 55
Codec ID/Hint                            : MP3
Duration                                 : 22mn 51s
Bit rate mode                            : Constant
Bit rate                                 : 160 Kbps
Channel(s)                               : 2 channels
Sampling rate                            : 48.0 KHz
Compression mode                         : Lossy
Stream size                              : 26.2 MiB (14%)
Alignment                                : Split accross interleaves
Interleave, duration                     : 42 ms (1.00 video frame)
Interleave, preload duration             : 500 ms

Κοινοποιήστε αυτήν την ανάρτηση


Σύνδεσμος στην ανάρτηση
Κοινοποίηση σε άλλες σελίδες

Αν δεν σε πηγαίνει στα i-frames δεν μπορείς να κόψεις χωρίς re-encoding. Δοκίμασε από το μενού tools->rebuild i & b frames μήπως και στο διορθώσει αλλιώς θα πρέπει να επιλέξεις κάποιον άλλο codec αντί για copy στο video για να γίνει επανακωδικοποίηση.

 

btw, από το caprica είναι το επεισόδιο;

Κοινοποιήστε αυτήν την ανάρτηση


Σύνδεσμος στην ανάρτηση
Κοινοποίηση σε άλλες σελίδες

φιλε δεν μπορω να βρω το tools->rebuild i & b frames δεν μου βγαινει εννοω αυτο που γραφεις .και δεν ξερω τι ειναι το caprica φιλε εγω το κατεβασα απο ενα σιτε το star of ocean.

Κοινοποιήστε αυτήν την ανάρτηση


Σύνδεσμος στην ανάρτηση
Κοινοποίηση σε άλλες σελίδες

Σόρυ, χρησιμοποιώ την έκδοση 2.5.4 και όχι την τελευταία 2.6 στην οποία απ' ότι βλέπω έχουν αφαιρέσει τα tools (περίεργο).

Κατέβασε και δοκίμασε την παλαιότερη έκδοση (http://sourceforge.net/projects/avidemux/files/avidemux/2.5.4/) και δες αν κάνει κάτι η επιλογή.

 

EDIT:

Δοκίμασε και με το DivFix++ (http://www.divfix.org/)

 

Υ.Γ. Το caprica είναι μίνι σειρά του galactica και ένα επεισόδιο λεγόταν Rebirth, γι' αυτό ρώτησα.

Κοινοποιήστε αυτήν την ανάρτηση


Σύνδεσμος στην ανάρτηση
Κοινοποίηση σε άλλες σελίδες

ευχαριστω φιλε με την αλλαγη του codex τα καταφερα. εχω αλλο ενα προβλημα αν μπορεις να με βοηθησεις προσπαθω να κοψω παλι κατι αλλα δεν μου εμφανιζονται οι υποτιτλοι τους χωρισα με το mkvtoolnix  και προσπαθω να κανω κατι ποθ εχω διαβασει εδω στο σιτε αλλα παω να το κανω και μου εμφανιζει αυτο http://imageshack.us/photo/my-images/837/vzv.png/ το πρεπει να κανω.

Κοινοποιήστε αυτήν την ανάρτηση


Σύνδεσμος στην ανάρτηση
Κοινοποίηση σε άλλες σελίδες

Βάλε χειροκίνητα το path και το όνομα του font και θα στο πάρει π.χ.

C:\windows\arial.ttf

 

Αν θέλεις να μπορείς να έχεις πρόσβαση μέσα από το demux σε φάκελους συστήματος πρέπει να το τρέξεις με δεξί κλικ->εκτέλεση ως διαχειριστής. Μετά θα μπορείς να περιηγηθείς στον φάκελο fonts.

Κοινοποιήστε αυτήν την ανάρτηση


Σύνδεσμος στην ανάρτηση
Κοινοποίηση σε άλλες σελίδες

τελικα οι υποτιλοι ηταν ass και οχι srt και εγω προσπαθουσα να τουσ ενσωματοσω με το τελευταιο που ειναι για srt αλλα οκ ενσωματωνονται αλλα το βιντεο καποιε φορες κολαει προχωραει η μουσικη και οι υποτιτλοι και το βιντεο μενουν πισω μηπως μπορεις να με βοηθησεις .

 

 

 

Υ.Γ οταν προσπαθω να ανοιξω το font δεν μου βγαινει το εκτέλεση ως διαχειριστής και το επεισοδειο ειναι απο το death note .

Κοινοποιήστε αυτήν την ανάρτηση


Σύνδεσμος στην ανάρτηση
Κοινοποίηση σε άλλες σελίδες

Από animeclipse το κατέβασες;

Με το toolnix μπορείς να κόψεις mkv με ενσωματωμένους υπότιτλους. Κόβει και τους υπότιτλους μαζί. Πας στην καρτέλα Global και ενεργοποιείς το Splitting. Βάζεις σε τι χρόνο ή σε τι μέγεθος να κόψει και πατάς start muxing.

Κοινοποιήστε αυτήν την ανάρτηση


Σύνδεσμος στην ανάρτηση
Κοινοποίηση σε άλλες σελίδες

ευχαριστω φιλε το εκανα και βγηκε πολυ καλο ,ειναι απιστευτο πως το κανει απλα εγραψα 20 mb  και το χωρισε σε κοματια και ειχε και το ending kai opening .

 

 

υ.χ αμα εννοεις το naruto το κατεβασa απο ενα αλλα σιτε που τα μετφραζουν http://raitonryufansubs.forumgreek.com/

 

, τωρα αμα εννοεις για το death note ναι απο animeclipse

Κοινοποιήστε αυτήν την ανάρτηση


Σύνδεσμος στην ανάρτηση
Κοινοποίηση σε άλλες σελίδες

Δημιουργήστε έναν λογαριασμό ή συνδεθείτε για να σχολιάσετε

Πρέπει να είστε μέλος για να αφήσετε σχόλιο

Δημιουργία λογαριασμού

Εγγραφείτε με νέο λογαριασμό στην κοινότητα μας. Είναι εύκολο!

Εγγραφείτε για έναν νέο λογαριασμό

Σύνδεση

Έχετε ήδη λογαριασμό; Συνδεθείτε εδώ.

Συνδεθείτε τώρα
×
×
  • Δημιουργία νέου...

Χρήσιμες πληροφορίες

Με την περιήγησή σας στο insomnia.gr, αποδέχεστε τη χρήση cookies που ενισχύουν σημαντικά την εμπειρία χρήσης.