Προς το περιεχόμενο

Video από youtube


Προτεινόμενες αναρτήσεις

Γεια σας. Τώρα τελευταία που κατεβάζω κάποια videos από youtube, βλέπω ότι δεν τα παίζει ενα media player που έχω στην τηλεόραση( Egreat).

Κάνει σπασίματα και μετά το κόβει. Πριν λίγο καιρό τα παιζε κανονικά ότι κατέβαζα.

Κατεβάζω και με youtube downloader και με πρόσθετα από browsers.

Στο pc τα παίζει κανονικά.

Έχει να κάνει με πνευματικά δικαιώματα, ή παίζει κάτι άλλο;

Εχω win8.1.

 

Σύνδεσμος στην ανάρτηση
Κοινοποίηση σε άλλες σελίδες

Δώσε στοιχεία από βίντεο που δεν παίζει. Αν έχει το mpc-hc πήγαινε Αρχείο->Ιδιότητες και στην καρτέλα Media info θα αντιγράψεις όλα τα στοιχεία και επικόλληση σε επόμενο μήνυμα.

Αν έχεις vlc, πας μενού Εργαλεία->Codec information (αν θυμάμε καλά) και μετά την καρτέλα Codec details.

Μπορείς να πάρεις τις πληροφορίες και από το εξαιρετικό MediaInfo.

Πάντως, το egreat media tank αν και πολύ καλό για την εποχή του, πλέον είναι πολύ αρχαίο και η εταιρία δεν το στήριξε αρκετά. Έχω κι εγώ ένα τέτοιο αλλά το έχω παροπλίσει και αντικαταστήσει με ένα tv box με s910 2gb ram 16gb storage.

Σύνδεσμος στην ανάρτηση
Κοινοποίηση σε άλλες σελίδες
Δημοσ. (επεξεργασμένο)
1 ώρα πριν, manos04 είπε

Τελικά Βλέπω ότι κάποια τα παίζει το egreat και κάποια όχι.

Στο pc παίζουν όλα πάντως.

 

 

 

Αυτό πχ το παίζει κανονικά.

General
Complete name                  : D:\VIDEOS\AQUARIUM\650 LITER ANGELFISH AQUASCAPE - 4K CINEMATIC - GREEN AQUA.mp4
Format                         : MPEG-4
Format profile                 : Base Media
Codec ID                       : isom
File size                      : 20.5 MiB
Duration                       : 3mn 29s
Overall bit rate               : 821 Kbps
Writing application            : Lavf54.63.104

Video
ID                             : 1
Format                         : AVC
Format/Info                    : Advanced Video Codec
Format profile                 : [email protected]
Format settings, CABAC         : Yes
Format settings, ReFrames      : 3 frames
Codec ID                       : avc1
Codec ID/Info                  : Advanced Video Coding
Duration                       : 3mn 29s
Bit rate                       : 685 Kbps
Width                          : 1 280 pixels
Height                         : 720 pixels
Display aspect ratio           : 16:9
Frame rate mode                : Constant
Frame rate                     : 29.970 fps
Color space                    : YUV
Chroma subsampling             : 4:2:0
Bit depth                      : 8 bits
Scan type                      : Progressive
Bits/(Pixel*Frame)             : 0.025
Stream size                    : 17.1 MiB (83%)
Writing library                : x264 core 155 r2901 7d0ff22
Color range                    : Limited
Color primaries                : BT.709
Transfer characteristics       : BT.709
Matrix coefficients            : BT.709

Audio
ID                             : 2
Format                         : AAC
Format/Info                    : Advanced Audio Codec
Format profile                 : LC
Codec ID                       : 40
Duration                       : 3mn 29s
Bit rate mode                  : Constant
Bit rate                       : 128 Kbps
Channel(s)                     : 2 channels
Channel positions              : Front: L R
Sampling rate                  : 44.1 KHz
Compression mode               : Lossy
Stream size                    : 3.20 MiB (16%)
Language                       : English

 

Αυτό δεν το παίζει φίλε μου.

General
Complete name                  : D:\VIDEOS\AQUARIUM\My _NEW_ DREAM AQUARIUM BUILD!! - (Freshwater).mp4
Format                         : MPEG-4
Format profile                 : Base Media
Codec ID                       : isom
File size                      : 162 MiB
Duration                       : 10mn 3s
Overall bit rate               : 2 248 Kbps
Writing application            : Lavf54.63.104

Video
ID                             : 1
Format                         : AVC
Format/Info                    : Advanced Video Codec
Format profile                 : [email protected]
Format settings, CABAC         : Yes
Format settings, ReFrames      : 3 frames
Codec ID                       : avc1
Codec ID/Info                  : Advanced Video Coding
Duration                       : 10mn 3s
Bit rate                       : 2 115 Kbps
Width                          : 1 280 pixels
Height                         : 720 pixels
Display aspect ratio           : 16:9
Frame rate mode                : Constant
Frame rate                     : 23.976 fps
Color space                    : YUV
Chroma subsampling             : 4:2:0
Bit depth                      : 8 bits
Scan type                      : Progressive
Bits/(Pixel*Frame)             : 0.096
Stream size                    : 152 MiB (94%)
Color range                    : Limited
Color primaries                : BT.709
Transfer characteristics       : BT.709
Matrix coefficients            : BT.709

Audio
ID                             : 2
Format                         : AAC
Format/Info                    : Advanced Audio Codec
Format profile                 : LC
Codec ID                       : 40
Duration                       : 10mn 3s
Bit rate mode                  : Constant
Bit rate                       : 128 Kbps
Channel(s)                     : 2 channels
Channel positions              : Front: L R
Sampling rate                  : 44.1 KHz
Compression mode               : Lossy
Stream size                    : 9.20 MiB (6%)
Language                       : English

 

Επεξ/σία από manos04
Σύνδεσμος στην ανάρτηση
Κοινοποίηση σε άλλες σελίδες
Δημοσ. (επεξεργασμένο)

Την μόνη διαφορά που βλέπω είναι ότι το 2ο έχει πολύ υψηλό video bitrate (2115 Kbps έναντι 685 Kbps) Από που κάνεις την αναπαραγωγή; Αν είναι από στικάκι ενδέχεται να είναι πολύ αργό και να μην προλαβαίνει να διαβάσει και να αποκωδικοποιήσει γρήγορα το βίντεο. Αν είναι από σκληρό δίσκο τότε μάλλον δεν αντέχει τόσο το egreat.

Επεξ/σία από micos000
Σύνδεσμος στην ανάρτηση
Κοινοποίηση σε άλλες σελίδες

To στικάκι είναι καινούριο 64giga όμως, αλλά είναι usb3.

Ίσως έχεις δίκιο όμως θα το δοκιμάσω και με άλλο να δω.

Το δοκίμασα και με άλλο, δεν το παίζει τελικά.

Πάντως το egreat παίζει ανετα 1080p, δεν μπορείνα παίξει απο το youtube;

Το ίδιο πάντως και σε 480p που το κατέβασα δεν το παιζε.

Θα δούμε.

Σ ευχαριστώ πάντως που απάντησες.

Σύνδεσμος στην ανάρτηση
Κοινοποίηση σε άλλες σελίδες

Μην κοιτάς μόνο την ανάλυση αλλά και το video bitrate. Δοκίμασες και στην άλλη usb;

44 λεπτά πριν, manos04 είπε

To στικάκι είναι καινούριο 64giga όμως, αλλά είναι usb3

Το ότι είναι usb3 μικρή σημασία έχει καθώς 1ον το egreat έχει μόνο usb2 θύρες και 2ον το usb3 σημαίνει ότι η ταχύτητα μεταγωγής δεδομένων μέσω της usb είναι ψηλή αλλά δεν σου λέει ότι και η ταχύτητα μεταφοράς του αποθηκευτικού χώρου ακολουθεί τις ταχύτητες του usb3. Αν θέλεις τέσταρε τα στικάκια σου με το crystal disk mark να δεις τις πραγματικές ταχύτητες που δίνουν.

Σύνδεσμος στην ανάρτηση
Κοινοποίηση σε άλλες σελίδες

Ναι δοκίμασα φίλε μου, και με άλλο στικάκι, ότι δεν παίζει στο ένα δεν παίζει και στο άλλο.

Άρα είναι το bitrate που λες.

Σε ταινίες πάντως δεν είδα κάποιο κόλλημα μέχρι στιγμής.

Σύνδεσμος στην ανάρτηση
Κοινοποίηση σε άλλες σελίδες

Δημιουργήστε ένα λογαριασμό ή συνδεθείτε για να σχολιάσετε

Πρέπει να είστε μέλος για να αφήσετε σχόλιο

Δημιουργία λογαριασμού

Εγγραφείτε με νέο λογαριασμό στην κοινότητα μας. Είναι πανεύκολο!

Εγγραφείτε για έναν νέο λογαριασμό

Σύνδεση

Έχετε ήδη λογαριασμό; Συνδεθείτε εδώ.

Συνδεθείτε τώρα
  • Δημιουργία νέου...

Με την περιήγησή σας στο insomnia.gr, αποδέχεστε τη χρήση cookies που ενισχύουν σημαντικά την εμπειρία χρήσης.