Προς το περιεχόμενο

επεξεργασία video


kostas/88

Προτεινόμενες αναρτήσεις

Για σας παιδιά, θέλω για άλλη μια φορα τα φώτα σας σχετικά με την επεξεργασία video γιατί δεν σκαμπάζω και παρα πολλά :rolleyes:

 

έχω γράψει με μια κάρτα tv κάτι κινούμενα σχέδια,το αποτέλεσμα είναι αρκετά καλο αλλα για αρχεία 25 λεπτών τα 400 με 500 MB για το καθένα μου φαίνεται αρκετά μεγάλο.

θέλω λοιπόν να τα επεξεργαστώ λιγάκι ώστε να τα μικρύνω σε μέγεθος και εδώ χρειάζομαι την βοήθεια σας, για να μου πείτε σε τι τύπο να τα μετατρέψω και τι ρυθμίσεις να κάνω ώστε να μπορέσω να τα μικρύνω με όσο το δυνατόν λιγότερες απώλειες σε εικόνα και ήχο

 

 

τα στοιχεια τον video είναι τα παρακάτω

 

Format : Windows Media

File size : 480 MiB

Duration : 22mn 35s

Overall bit rate mode : Constant

Overall bit rate : 2 973 Kbps

Maximum Overall bit rate : 7 185 Kbps

Encoded date : UTC 2011-06-12 01:19:28.364

Cover : Y

 

Video

ID : 1

Format : VC-1

Format profile : [email protected]

Codec ID : WMV3

Codec ID/Info : Windows Media Video 9

Codec ID/Hint : WMV3

Description of the codec : Windows Media Video 9 - Professional

Duration : 22mn 35s

Bit rate mode : Constant

Bit rate : 7 000 Kbps

Width : 640 pixels

Height : 480 pixels

Display aspect ratio : 4:3

Frame rate : 29.970 fps

Bit depth : 8 bits

Scan type : Progressive

Compression mode : Lossy

Bits/(Pixel*Frame) : 0.760

Stream size : 1.10 GiB

 

Audio

ID : 2

Format : WMA

Format profile : Pro

Codec ID : 162

Codec ID/Info : Windows Media Audio

Description of the codec : Windows Media Audio 10 Professional - 128 kbps, 48 kHz, 2 channel 16 bit (A/V) 1-pass CBR

Duration : 22mn 35s

Bit rate mode : Constant

Bit rate : 128 Kbps

Channel(s) : 2 channels

Sampling rate : 48.0 KHz

Bit depth : 16 bits

Stream size : 20.7 MiB (4%)

Σύνδεσμος στην ανάρτηση
Κοινοποίηση σε άλλες σελίδες

Αν τα θέλεις μόνο για τον Η/Υ τότε κάνε τα mkv,αν τα θέλεις και για dvdplayer τότε dvd ή avi αφού τα παίζουν αρκετά players.

 

Τρέξε το free make video ρίξε μέσα το βίντεο και στην κάτω μπάρα επέλεξε τον τύπο που θες,στης ρυθμίσεις το bitrate ελέγχει το μέγεθος(και την ποιότητα) του βίντεο,παίξε γύρο στο 1000-1500,με το two pass κάνει ποιο καλή μετατροπή αν και σπάνια χρειάζεται.

 

Αν είσαι ψείρας ψάξε στο net για anime coding είναι τρελοί οι τύποι και το έχουν λιώσει στο ψάξιμο.

Σύνδεσμος στην ανάρτηση
Κοινοποίηση σε άλλες σελίδες

Δημιουργήστε ένα λογαριασμό ή συνδεθείτε για να σχολιάσετε

Πρέπει να είστε μέλος για να αφήσετε σχόλιο

Δημιουργία λογαριασμού

Εγγραφείτε με νέο λογαριασμό στην κοινότητα μας. Είναι πανεύκολο!

Εγγραφείτε για έναν νέο λογαριασμό

Σύνδεση

Έχετε ήδη λογαριασμό; Συνδεθείτε εδώ.

Συνδεθείτε τώρα
  • Δημιουργία νέου...

Με την περιήγησή σας στο insomnia.gr, αποδέχεστε τη χρήση cookies που ενισχύουν σημαντικά την εμπειρία χρήσης.