Προς το περιεχόμενο
Kosmas70

Πρόβλημα με αρχείο βίντεο XviD.AC3

Προτεινόμενες αναρτήσεις

Έχω ένα αρχείο video με κατάληξη .XviD.AC3 το οποίο δεν παίζει στον υπολογιστή μου, δηλαδή όταν πάω να το αναπαράγω ανοίγει το WMP αλλά κολάει. Υπέθεσα πως έλειπε κάποιος codec και εγκατέστησα το K-Lite Codec Pack 10.0.5 FULL αλλά και πάλι δεν παίζει... Έχει κανείς καμιά ιδέα;  :wacko:

Κοινοποιήστε αυτήν την ανάρτηση


Σύνδεσμος στην ανάρτηση
Κοινοποίηση σε άλλες σελίδες

Άνοιξε το αρχείο με το mediainfo πάνε view->text και κάνε αντιγραφή/επικόλληση το αποτέλεσμα στο επόμενο σου μήνυμα.

 

Αν έχεις τον Η/Υ να βγάζει καταλήξεις και όντως είναι στο τέλος .ac3 άλλαξε την κατάληξη σε avi και ξανά δοκίμασε.

Κοινοποιήστε αυτήν την ανάρτηση


Σύνδεσμος στην ανάρτηση
Κοινοποίηση σε άλλες σελίδες

 

General
Complete name                  : E:\The.Big.Wedding.XviD.AC3-ADTRG\The.Big.Wedding.XviD.AC3-ADTRG.avi
Format                                   : Windows Media
File size                                 : 700 MiB
Duration                                : 25s 91ms
Overall bit rate mode           : Constant
Overall bit rate                        : 234 Mbps
Maximum Overall bit rate     : 1 647 Kbps
Encoded date                        : UTC 2013-08-23 20:15:22.401
 
Video
ID                                       : 1
Format                               : WMV2
Codec ID                            : WMV2
Codec ID/Info                    : Windows Media Video 8
Duration                              : 25s 92ms
Bit rate mode                     : Constant
Bit rate                                 : 1 500 Kbps
Width                                    : 640 pixels
Height                                  : 480 pixels
Display aspect ratio           : 4:3
Frame rate                            : 29.970 fps
Bit depth                                : 8 bits
Bits/(Pixel*Frame)               : 0.163
Stream size                           : 4.49 MiB (1%)
Language                              : English (US)
 
Audio 
ID                                            : 2
Format                                   : WMA
Format version                     : Version 2
Codec ID                                : 161
Codec ID/Info                        : Windows Media Audio
Duration                                 : 25s 90ms
Bit rate mode                        : Constant
Bit rate                                    : 128 Kbps
Channel(s)                            : 2 channels
Sampling rate                       : 44.1 KHz
Bit depth                                 : 16 bits
Stream size                            : 392 KiB (0%)
Language                              : English (US)

 

Δοκίμασα να αλλάξω κατάληξη αλλά και πάλι δεν παίζει.

Κοινοποιήστε αυτήν την ανάρτηση


Σύνδεσμος στην ανάρτηση
Κοινοποίηση σε άλλες σελίδες

Το link στο encryption βρομάει ακόμα παραπάνω.

Φίλε διέγραψε το και διάβαζε τα σχόλια πριν κατεβάσεις κάτι.

  • Like 1

Κοινοποιήστε αυτήν την ανάρτηση


Σύνδεσμος στην ανάρτηση
Κοινοποίηση σε άλλες σελίδες

Δημιουργήστε έναν λογαριασμό ή συνδεθείτε για να σχολιάσετε

Πρέπει να είστε μέλος για να αφήσετε σχόλιο

Δημιουργία λογαριασμού

Εγγραφείτε με νέο λογαριασμό στην κοινότητα μας. Είναι εύκολο!

Εγγραφείτε για έναν νέο λογαριασμό

Σύνδεση

Έχετε ήδη λογαριασμό; Συνδεθείτε εδώ.

Συνδεθείτε τώρα
×
×
  • Δημιουργία νέου...

Χρήσιμες πληροφορίες

Με την περιήγησή σας στο insomnia.gr, αποδέχεστε τη χρήση cookies που ενισχύουν σημαντικά την εμπειρία χρήσης.