Προς το περιεχόμενο
Συνδεθείτε  
vaiosgtr

ποιότητα βιντεο

Προτεινόμενες αναρτήσεις

εκτος απο την αναλυση την οποια μπορω να διακρινω μονο με το ματι ...

πως μπορω να μάθω για τα χρώματα και ποσα fps ειναι ενα βίντεο??

 

συνηθως το μεγαλυτερο σε gb ειναι και καλυτερο? ή αυτο δεν ισχυει σε πολλες περιπτωσεις ?

Κοινοποιήστε αυτήν την ανάρτηση


Σύνδεσμος στην ανάρτηση
Κοινοποίηση σε άλλες σελίδες

εκτος απο την αναλυση την οποια μπορω να διακρινω μονο με το ματι ...

πως μπορω να μάθω για τα χρώματα και ποσα fps ειναι ενα βίντεο??

 

συνηθως το μεγαλυτερο σε gb ειναι και καλυτερο? ή αυτο δεν ισχυει σε πολλες περιπτωσεις ?

 

Στις λεπτομέρειες του βίντεο (ιδιότητες> λεπτομέρειες).

Κοινοποιήστε αυτήν την ανάρτηση


Σύνδεσμος στην ανάρτηση
Κοινοποίηση σε άλλες σελίδες

Με το media info

σε ευχαριστω αλλα μπορεις να μου εξηγησεις και τα παρακάτω ?

  • στο ενα μου λεει Writing library: libebml v1.2.3 + libmatroska v1.3.0
    και Stream size: 7.26 GiB
  • ενω στο αλλο Writing library : libebml v1.0.0 + libmatroska v1.0.0
    και Stream size: 7.25 GiB
     
    τι διαφορα εχουν δηλαδη ???
  • επισης οι δυο ταινιες εχουν την ιδια αναλυση και fps
    αλλα η μια ειναι 8,74 ενω η αλλη 9,30 gb
    και το παραξενο ειναι πως στην επιλογη Bits/(Pixel*Frame) μου το βγαζει 0,228 και στιςδυο

Κοινοποιήστε αυτήν την ανάρτηση


Σύνδεσμος στην ανάρτηση
Κοινοποίηση σε άλλες σελίδες

Μιας και το βίντεο και στης δυο ταινίες είναι σχεδόν ίδιο 7.26 έναντι 7.25 σημαίνει ότι η διαφορά στο μέγεθος είναι στα υπόλοιπα ή έχει πολύ καλύτερο ήχο(ή έστω μεγαλύτερο σε gb) ή έχει περισσότερες γλώσσες,πάνε view->text στο mediainfo για να δεις πόσες και τι ροές υπάρχουν.

Κοινοποιήστε αυτήν την ανάρτηση


Σύνδεσμος στην ανάρτηση
Κοινοποίηση σε άλλες σελίδες

Μιας και το βίντεο και στης δυο ταινίες είναι σχεδόν ίδιο 7.26 έναντι 7.25 σημαίνει ότι η διαφορά στο μέγεθος είναι στα υπόλοιπα ή έχει πολύ καλύτερο ήχο(ή έστω μεγαλύτερο σε gb) ή έχει περισσότερες γλώσσες,πάνε view->text στο mediainfo για να δεις πόσες και τι ροές υπάρχουν.

 

οντως εχουν διαφορα στον ηχο αλλα το παραξενο τωρα που το κοιταξα ειναι οτι

αυτο που ειναι 8,74 εχει ηχο 1,31 Gb

και το αλλο που ειναι 9,30 εχει ηχο 569 mb :wacko: +ενα κειμενο παραπανω

αρα τα δυο κειμενα μαζι ποιανουν 1,481 gb !!! :confused: αν ειναι δυνατον και απ'οτι βλεπω ειναι απλα υποτιτλοι

Κοινοποιήστε αυτήν την ανάρτηση


Σύνδεσμος στην ανάρτηση
Κοινοποίηση σε άλλες σελίδες

Μήπως έχει περισσότερα stream ήχου και δεν το είδες;

 

αχ ναι wall.gif

 

συγνωμη για την "αναστατωση"

Κοινοποιήστε αυτήν την ανάρτηση


Σύνδεσμος στην ανάρτηση
Κοινοποίηση σε άλλες σελίδες

Δημιουργήστε έναν λογαριασμό ή συνδεθείτε για να σχολιάσετε

Πρέπει να είστε μέλος για να αφήσετε σχόλιο

Δημιουργία λογαριασμού

Εγγραφείτε με νέο λογαριασμό στην κοινότητα μας. Είναι εύκολο!

Εγγραφείτε για έναν νέο λογαριασμό

Σύνδεση

Έχετε ήδη λογαριασμό; Συνδεθείτε εδώ.

Συνδεθείτε τώρα
Συνδεθείτε  
×
×
  • Δημιουργία νέου...

Χρήσιμες πληροφορίες

Με την περιήγησή σας στο insomnia.gr, αποδέχεστε τη χρήση cookies που ενισχύουν σημαντικά την εμπειρία χρήσης.